ShiVa Developer Forum • View topic - Export Android Studio - DoMakeDisconnection
 

Export Android Studio - DoMakeDisconnection

Export Android Studio - DoMakeDisconnection

Postby raspberryvalentina » 2019-04-09 13:12

Hi All.

I tryed export to Android Studio project, but i have this problems --->

Could not create Android project
Authoring failed.
2019-04-09 14:05:56.146 ShiVa Editor CLI[3597:31734] 14:05:56.145 ERROR: AudioUnitGraph.cpp:2941: DoMakeDisconnection: DoMakeDisconnection failed with error -10860
Finalizing job: Android Authoring

Help me please
raspberryvalentina
Fresh Boarder
Fresh Boarder
 
Posts: 5
Joined: 2015-03-18 16:27

Re: Export Android Studio - DoMakeDisconnection

Postby broozar » 2019-04-13 00:30

hi, so far, this error has not yet been reported, and I can't reproduce is with my samples. please post a little more info on your setup and how you are exporting. which shiva version, which version of android studio, which Android API are you targeting, which steps you do for the export, etc.
User avatar
broozar
Administrator
Administrator
 
Posts: 4172
Joined: 2007-09-16 10:22
Location: Berlin - Germany

Re: Export Android Studio - DoMakeDisconnection

Postby raspberryvalentina » 2019-04-16 19:18

broozar wrote:hi, so far, this error has not yet been reported, and I can't reproduce is with my samples. please post a little more info on your setup and how you are exporting. which shiva version, which version of android studio, which Android API are you targeting, which steps you do for the export, etc.


MacOs Sierra 10.12.6
Shiva 2.0 Beta 9
Try all Android SDK API
My ERROR Log --->
ffmpeg version 2.2.1 Copyright (c) 2000-2014 the FFmpeg developers
built on Apr 23 2014 23:45:52 with Apple LLVM version 5.1 (clang-503.0.40) (based on LLVM 3.4svn)
configuration: --disable-yasm --disable-ffplay --disable-gpl --disable-nonfree --enable-pthreads --enable-libtheora --enable-libvorbis --disable-zlib --disable-bzlib --disable-iconv
libavutil 52. 66.100 / 52. 66.100
libavcodec 55. 52.102 / 55. 52.102
libavformat 55. 33.100 / 55. 33.100
libavdevice 55. 10.100 / 55. 10.100
libavfilter 4. 2.100 / 4. 2.100
libswscale 2. 5.102 / 2. 5.102
libswresample 0. 18.100 / 0. 18.100
Input #0, ogg, from '/Users/kate/Downloads/LadybugsNew/Resources/Sounds/achivment_krystal.snd':
Duration: 00:00:01.30, start: 0.000000, bitrate: 164 kb/s
Stream #0:0: Audio: vorbis, 44100 Hz, mono, fltp, 160 kb/s
Output #0, ogg, to '/Users/kate/Downloads/LadybugsNew/Buil ... efault.snd':
Metadata:
encoder : Lavf55.33.100
Stream #0:0: Audio: vorbis (libvorbis), 44100 Hz, mono, fltp
Metadata:
encoder : Lavf55.33.100
Stream mapping:
Stream #0:0 -> #0:0 (vorbis -> libvorbis)
[libvorbis @ 0x7f991d014400] Queue input is backward in time
Last message repeated 1 times
size= 29kB time=00:00:01.30 bitrate= 182.1kbits/s
video:0kB audio:25kB subtitle:0 data:0 global headers:4kB muxing overhead 0.962290%
Creating runtime data for file 261/329: 'bomb_sound'
ffmpeg version 2.2.1 Copyright (c) 2000-2014 the FFmpeg developers
built on Apr 23 2014 23:45:52 with Apple LLVM version 5.1 (clang-503.0.40) (based on LLVM 3.4svn)
configuration: --disable-yasm --disable-ffplay --disable-gpl --disable-nonfree --enable-pthreads --enable-libtheora --enable-libvorbis --disable-zlib --disable-bzlib --disable-iconv
libavutil 52. 66.100 / 52. 66.100
libavcodec 55. 52.102 / 55. 52.102
libavformat 55. 33.100 / 55. 33.100
libavdevice 55. 10.100 / 55. 10.100
libavfilter 4. 2.100 / 4. 2.100
libswscale 2. 5.102 / 2. 5.102
libswresample 0. 18.100 / 0. 18.100
Input #0, ogg, from '/Users/kate/Downloads/LadybugsNew/Resources/Sounds/bomb_sound.snd':
Duration: 00:00:02.01, start: 0.000000, bitrate: 109 kb/s
Stream #0:0: Audio: vorbis, 44100 Hz, mono, fltp, 140 kb/s
Output #0, ogg, to '/Users/kate/Downloads/LadybugsNew/Buil ... efault.snd':
Metadata:
encoder : Lavf55.33.100
Stream #0:0: Audio: vorbis (libvorbis), 44100 Hz, mono, fltp
Metadata:
encoder : Lavf55.33.100
Stream mapping:
Stream #0:0 -> #0:0 (vorbis -> libvorbis)
[libvorbis @ 0x7f9e9f822000] Queue input is backward in time
size= 46kB time=00:00:02.00 bitrate= 189.4kbits/s
video:0kB audio:42kB subtitle:0 data:0 global headers:4kB muxing overhead 0.640075%
raspberryvalentina
Fresh Boarder
Fresh Boarder
 
Posts: 5
Joined: 2015-03-18 16:27

Re: Export Android Studio - DoMakeDisconnection

Postby raspberryvalentina » 2019-04-17 00:37

On Windows this problems --->

failed to Run C:/Program Files (x86)/ShiVa Technologies/ShiVa Editor/Tools/Windows/ffmpeg/ffmpeg.exe -i C:/Users/user/Desktop/NNNNN/Resources/Musics/COMMON_TutorialMusicLoop.mus -acodec libvorbis -nostdin -y -stats -vn -f ogg -q:a 100 C:/Users/user/Desktop/NNNNN/Build/Resources/Musics/COMMON_TutorialMusicLoop@Default.mus
Failed to build C:/Users/user/Desktop/NNNNN/Resources/Musics/COMMON_TutorialMusicLoop.mus
raspberryvalentina
Fresh Boarder
Fresh Boarder
 
Posts: 5
Joined: 2015-03-18 16:27

Re: Export Android Studio - DoMakeDisconnection

Postby broozar » 2019-04-17 10:07

Thanks for the reports. Apparently, there is a problem with encoding audio via ffmpeg to ogg.

Mac:
1. The log you posted only contains conversions, but no actual error messages. Is there more?
2. For long logs, please use a nopaste service like https://pastebin.com/ and then only post the link.

Windows: "failed to run" can mean a number of different things.
1. Why is your ShiVa 2.0 Editor installed in "Program Files (x86)"? Are you actually running the 32bit version? Can you download the 64bit version and check if you have the same issue? Or are you rúnning the 64bit version and just installed it there?
2. Is some additional software (like an aggressive virus scanner) preventing ffmpeg.exe from executing?
3. If you run the ShiVa Editor as Admin, does it make any difference?
User avatar
broozar
Administrator
Administrator
 
Posts: 4172
Joined: 2007-09-16 10:22
Location: Berlin - Germany


Return to Installation & Configuration

Who is online

Users browsing this forum: No registered users and 1 guest

cron